+ ShareSpark.net »  :::: Bollywood Zone » Bollywood Movies (Original Rips)
|- Red - The Dark Side (2007) 720p WEBHD AVC AAC -Ranvijay


Electroncs Sale

Red - The Dark Side (2007) 720p WEBHD AVC AAC -Ranvijay

0 Members and 1 Guest are viewing this topic.

August 11, 2017, 12:25:40 AM
  • Global Moderator
  • Legend Member
  • *****
  • Topic Author
  • Thank You: 11919
  • Reputation: 2423
  • Activity:
    100%
  • Country: in
  • Posts: 5646
  • Topics: 4627
  • Join Date: Jan 2014
  • ıllıllı ѕмoĸιng ιѕ good ғor нealтн ıllıllı :)
Red - The Dark Side (2007) 720p WEBHD AVC AAC -Ranvijay





:info:

Quote
Format                                   : Matroska
Format version                           : Version 4 / Version 2
File size                                : 1.33 GiB
Duration                                 : 1 h 35 min
Overall bit rate                         : 1 994 kb/s
Movie name                               : Extradesimovies.in
Encoded date                             : UTC 2017-08-10 18:08:03
Writing application                      : mkvmerge v9.6.0 ('Slave To Your Mind') 64bit
Writing library                          : libebml v1.3.4 + libmatroska v1.4.5

Video
ID                                       : 1
Format                                   : AVC
Format/Info                              : Advanced Video Codec
Format profile                           : [email protected]
Format settings, CABAC                   : Yes
Format settings, RefFrames               : 1 frame
Format settings, GOP                     : M=1, N=25
Codec ID                                 : V_MPEG4/ISO/AVC
Duration                                 : 1 h 35 min
Bit rate mode                            : Constant
Bit rate                                 : 2 000 kb/s
Width                                    : 1 280 pixels
Height                                   : 720 pixels
Display aspect ratio                     : 16:9
Frame rate mode                          : Constant
Frame rate                               : 25.000 FPS
Color space                              : YUV
Chroma subsampling                       : 4:2:0
Bit depth                                : 8 bits
Scan type                                : Progressive
Bits/(Pixel*Frame)                       : 0.087
Stream size                              : 1.29 GiB (97%)
Title                                    : Extradesimovies.in
Default                                  : Yes
Forced                                   : No

Audio
ID                                       : 2
Format                                   : AAC
Format/Info                              : Advanced Audio Codec
Format profile                           : LC
Codec ID                                 : A_AAC
Duration                                 : 1 h 35 min
Bit rate                                 : 61.4 kb/s
Channel(s)                               : 2 channels
Channel positions                        : Front: L R
Sampling rate                            : 48.0 kHz
Frame rate                               : 46.875 FPS (1024 SPF)
Compression mode                         : Lossy
Stream size                              : 42.0 MiB (3%)
Title                                    : Extradesimovies.in
Default                                  : Yes
Forced                                   : No

Text
ID                                       : 3
Format                                   : UTF-8
Codec ID                                 : S_TEXT/UTF8
Codec ID/Info                            : UTF-8 Plain Text
Duration                                 : 1 min 28 s
Bit rate                                 : 103 b/s
Count of elements                        : 7
Stream size                              : 1.12 KiB (0%)
Title                                    : Extradesimovies.in
Default                                  : Yes
Forced                                   : Yes

:ss:










:download:

Quote















Don't walk as you are king, walk as you don't care who the king is....!!
Never argue with an idiot. They drag you down to their level and then beat you with experience?

Share this topic on FacebookShare this topic on GoogleShare this topic on MySpaceShare this topic on TwitterShare this topic on Yahoo

« Last Edit: August 11, 2017, 01:03:24 AM by Rάήνίјάч1234 »



Don't walk as you are king, walk as you don't care who the king is....!!

Thanks given by:


Tags:
 

Related Topics





Back to top
GENIE 580XCD Aktenvernichter Cross Cut Partikelschnitt Papier Schredder Shredder | Order History | 1x896 Acacias 38