+ ShareSpark.net »  :::: Dubbed Zone (Dubbed English in Hindi) » English Movies Dubbed in Hindi
|- Scott Pilgrim Vs. The World 2010 x264 720p Esub BluRay Dual Audio English Hindi GOPISAHI


One Plus 6

Scott Pilgrim Vs. The World 2010 x264 720p Esub BluRay Dual Audio English Hindi GOPISAHI

0 Members and 1 Guest are viewing this topic.

December 28, 2018, 02:06:17 PM
  • ***************
  • Conqueror
  • Legend Member
  • *****
  • Topic Author
  • Thank You: 1968
  • Reputation: 566
  • Activity:
    100%
  • Country: pk
  • Posts: 2195
  • Topics: 1473
  • Join Date: Mar 2015
  • =$ Success Never Ends $=
Scott Pilgrim Vs. The World 2010 x264 720p Esub BluRay Dual Audio English Hindi GOPISAHI








Format : Matroska
Format version : Version 4 / Version 2
File size : 799 MiB
Duration : 1 h 52 min
Overall bit rate : 994 kb/s
Movie name : Scott Pilgrim Vs. The World 2010 GOPISAHI

Video
Format : AVC
Format/Info : Advanced Video Codec
Codec ID : V_MPEG4/ISO/AVC
Duration : 1 h 52 min
Bit rate : 799 kb/s
Width : 1 280 pixels
Height : 694 pixels
Display aspect ratio : 1.85:1
Frame rate mode : Constant
Frame rate : 23.976 (24000/1001) FPS
Color space : YUV
Chroma subsampling : 4:2:0
Bit depth : 8 bits
Scan type : Progressive
Bits/(Pixel*Frame) : 0.038
Stream size : 641 MiB (80%)
Title : GOPISAHI
Writing library : x264 core 155 r2901 7d0ff22

Audio #1
Format : AAC
Duration : 1 h 52 min
Bit rate : 96.0 kb/s
Channel(s) : 2 channels
Channel positions : Front: L R
Sampling rate : 48.0 kHz
Frame rate : 46.875 FPS (1024 SPF)
Compression mode : Lossy
Delay relative to video : 629 ms
Stream size : 77.3 MiB (10%)
Title : GOPISAHI
Language : Hindi

Audio #2
Format : AAC
Duration : 1 h 52 min
Bit rate : 96.0 kb/s
Channel(s) : 2 channels
Channel positions : Front: L R
Sampling rate : 48.0 kHz
Frame rate : 46.875 FPS (1024 SPF)
Compression mode : Lossy
Delay relative to video : -21 ms
Stream size : 77.3 MiB (10%)
Title : GOPISAHI
Language : English

Text
Language : English

Menu
00:00:00.000 : en:Chapter 1
00:07:24.778 : en:Chapter 2
00:13:14.460 : en:Chapter 3
00:20:01.242 : en:Chapter 4
00:26:01.143 : en:Chapter 5
00:30:50.140 : en:Chapter 6
00:38:53.206 : en:Chapter 7
00:45:25.765 : en:Chapter 8
00:50:18.682 : en:Chapter 9
00:53:55.274 : en:Chapter 10
00:59:16.303 : en:Chapter 11
01:03:10.537 : en:Chapter 12
01:08:05.373 : en:Chapter 13
01:14:23.376 : en:Chapter 14
01:20:19.023 : en:Chapter 15
01:27:47.304 : en:Chapter 16
01:30:43.605 : en:Chapter 17
01:39:14.407 : en:Chapter 18
01:40:49.794 : en:Chapter 19
01:48:34.550 : en:Chapter 20




 :ss:









 :download:














Share this topic on FacebookShare this topic on GoogleShare this topic on MySpaceShare this topic on TwitterShare this topic on Yahoo



Thanks given by:


Tags:
 

Related Topics





Back to top
+++ 3.reich Tolle Zeppelinkarte Mit Mif Zur Deutschlandfahrt 1937 +++ | Geratherm Termometro in/di vetro senza mercurio - temperatura corporea - clinico | In Defense of Humanity with AL Whitney June 18, 2016