+ ShareSpark.net »  :::: Dubbed Zone (Dubbed English in Hindi) » English Movies Dubbed in Hindi » High Resolution Movies
|- Scott Pilgrim vs. the World (2010) 1080p BluRay x264 Dual Audio [Hindi - English] DD5.1 - ESUBS ~ Ra


Amazon Pantry Offer

Scott Pilgrim vs. the World (2010) 1080p BluRay x264 Dual Audio [Hindi - English] DD5.1 - ESUBS ~ Ra

0 Members and 2 Guests are viewing this topic.

December 31, 2018, 10:55:54 PM
  • Global Moderator
  • Legend Member
  • *****
  • Topic Author
  • Thank You: 11919
  • Reputation: 2423
  • Activity:
    100%
  • Country: in
  • Posts: 5646
  • Topics: 4627
  • Join Date: Jan 2014
  • ıllıllı ѕмoĸιng ιѕ good ғor нealтн ıllıllı :)






Scott Pilgrim vs. the World (2010) 1080p BluRay x264 Dual Audio [Hindi - English] DD5.1 - ESUBS ~ Ranvijay

Thanks To Hammer For Hindi Audio

Buy RDP Online




Quote

Format                                   : Matroska
Format version                           : Version 4 / Version 2
File size                                : 4.79 GiB
Duration                                 : 1 h 52 min
Overall bit rate                         : 6 096 kb/s
Movie name                               : Scott Pilgrim vs. the World (2010) 1080p BluRay x264 Dual Audio [Hindi - English] DD5.1 - ESUBS ~ Ranvijay

Video
ID                                       : 1
Format                                   : AVC
Format/Info                              : Advanced Video Codec
Duration                                 : 1 h 52 min
Bit rate                                 : 5 000 kb/s
Width                                    : 1 920 pixels
Height                                   : 1 080 pixels
Display aspect ratio                     : 16:9
Frame rate mode                          : Constant
Frame rate                               : 23.976 (24000/1001) FPS
Color space                              : YUV
Chroma subsampling                       : 4:2:0
Bit depth                                : 8 bits
Scan type                                : Progressive
Bits/(Pixel*Frame)                       : 0.101
Stream size                              : 3.92 GiB (82%)
Title                                    : ~Ranvijay~

Audio #1
ID                                       : 2
Format                                   : AC-3
Format/Info                              : Audio Coding 3
Codec ID                                 : A_AC3
Duration                                 : 1 h 52 min
Bit rate mode                            : Constant
Bit rate                                 : 640 kb/s
Channel(s)                               : 6 channels
Channel positions                        : Front: L C R, Side: L R, LFE
Sampling rate                            : 48.0 kHz
Frame rate                               : 31.250 FPS (1536 SPF)
Bit depth                                : 16 bits
Compression mode                         : Lossy
Stream size                              : 514 MiB (10%)
Title                                    : ~Ranvijay~
Language                                 : Hindi
Service kind                             : Complete Main
Default                                  : Yes
Forced                                   : Yes

Audio #2
ID                                       : 3
Format                                   : AC-3
Format/Info                              : Audio Coding 3
Codec ID                                 : A_AC3
Duration                                 : 1 h 52 min
Bit rate mode                            : Constant
Bit rate                                 : 448 kb/s
Channel(s)                               : 6 channels
Channel positions                        : Front: L C R, Side: L R, LFE
Sampling rate                            : 48.0 kHz
Frame rate                               : 31.250 FPS (1536 SPF)
Bit depth                                : 16 bits
Compression mode                         : Lossy
Stream size                              : 360 MiB (7%)
Title                                    : ~Ranvijay~
Language                                 : English
Service kind                             : Complete Main
Default                                  : No
Forced                                   : No

Text #1
ID                                       : 4
Format                                   : VobSub
Muxing mode                              : zlib
Codec ID                                 : S_VOBSUB
Codec ID/Info                            : Picture based subtitle format used on DVDs
Duration                                 : 1 h 48 min
Bit rate                                 : 13.2 kb/s
Count of elements                        : 2154
Stream size                              : 10.2 MiB (0%)
Title                                    : ~Ranvijay~
Language                                 : English
Default                                  : Yes
Forced                                   : Yes

Text #2
ID                                       : 5
Format                                   : VobSub
Muxing mode                              : zlib
Codec ID                                 : S_VOBSUB
Codec ID/Info                            : Picture based subtitle format used on DVDs
Duration                                 : 1 h 52 min
Bit rate                                 : 4 559 b/s
Count of elements                        : 328
Stream size                              : 3.65 MiB (0%)
Title                                    : ~Ranvijay~
Language                                 : English
Default                                  : No
Forced                                   : No

Menu
00:00:00.000                             : en:Chapter 01
00:07:24.319                             : en:Chapter 02
00:13:14.669                             : en:Chapter 03
00:20:01.242                             : en:Chapter 04
00:26:01.143                             : en:Chapter 05
00:30:50.223                             : en:Chapter 06
00:38:52.747                             : en:Chapter 07
00:45:25.681                             : en:Chapter 08
00:50:18.515                             : en:Chapter 09
00:53:55.065                             : en:Chapter 10
00:59:15.844                             : en:Chapter 11
01:03:10.328                             : en:Chapter 12
01:08:05.206                             : en:Chapter 13
01:14:23.751                             : en:Chapter 14
01:20:19.023                             : en:Chapter 15
01:27:47.512                             : en:Chapter 16
01:30:43.772                             : en:Chapter 17
01:39:14.198                             : en:Chapter 18
01:40:49.794                             : en:Chapter 19
01:48:34.466                             : en:Chapter 20















:download:

Quote




File Leeched & Uploaded From




Don't walk as you are king, walk as you don't care who the king is....!!
Never argue with an idiot. They drag you down to their level and then beat you with experience?

Share this topic on FacebookShare this topic on GoogleShare this topic on MySpaceShare this topic on TwitterShare this topic on Yahoo




Don't walk as you are king, walk as you don't care who the king is....!!

Tags:
 

Related Topics





Back to top
Más seguidas | HD Den of Thieves | Scarica APK