+ ShareSpark.net »  :::: Dubbed Zone (Dubbed English in Hindi) » English Movies Dubbed in Hindi » High Resolution Movies
|- Season of the Witch (2011) 1080p BluRay x264 Dual Audio [Hindi DD5.1 - English DD5.1] - ESUB ~ Ranvi


Mastercard 10% Off

Season of the Witch (2011) 1080p BluRay x264 Dual Audio [Hindi DD5.1 - English DD5.1] - ESUB ~ Ranvi

0 Members and 1 Guest are viewing this topic.

December 31, 2018, 10:18:26 PM
  • Global Moderator
  • Legend Member
  • *****
  • Topic Author
  • Thank You: 11919
  • Reputation: 2423
  • Activity:
    100%
  • Country: in
  • Posts: 5646
  • Topics: 4627
  • Join Date: Jan 2014
  • ıllıllı ѕмoĸιng ιѕ good ғor нealтн ıllıllı :)






Season of the Witch (2011) 1080p BluRay x264 Dual Audio [Hindi DD5.1 - English DD5.1] - ESUB ~ Ranvijay

Thanks To Hammer For Hindi Audio

Buy RDP Online




Quote

Format                                   : Matroska
Format version                           : Version 4 / Version 2
File size                                : 4.04 GiB
Duration                                 : 1 h 34 min
Overall bit rate                         : 6 082 kb/s
Movie name                               : Season of the Witch (2011) 1080p BluRay x264 Dual Audio [Hindi DD5.1 - English DD5.1] - ESUB ~ Ranvijay

Video
ID                                       : 1
Format                                   : AVC
Format/Info                              : Advanced Video Codec
Duration                                 : 1 h 34 min
Bit rate                                 : 5 000 kb/s
Width                                    : 1 920 pixels
Height                                   : 1 080 pixels
Display aspect ratio                     : 16:9
Frame rate mode                          : Constant
Frame rate                               : 23.976 (24000/1001) FPS
Color space                              : YUV
Chroma subsampling                       : 4:2:0
Bit depth                                : 8 bits
Scan type                                : Progressive
Bits/(Pixel*Frame)                       : 0.101
Stream size                              : 3.31 GiB (82%)
Title                                    : ~Ranvijay~

Audio #1
ID                                       : 2
Format                                   : AC-3
Format/Info                              : Audio Coding 3
Codec ID                                 : A_AC3
Duration                                 : 1 h 34 min
Bit rate mode                            : Constant
Bit rate                                 : 640 kb/s
Channel(s)                               : 6 channels
Channel positions                        : Front: L C R, Side: L R, LFE
Sampling rate                            : 48.0 kHz
Frame rate                               : 31.250 FPS (1536 SPF)
Bit depth                                : 16 bits
Compression mode                         : Lossy
Delay relative to video                  : 20 s 928 ms
Stream size                              : 433 MiB (10%)
Title                                    : ~Ranvijay~
Language                                 : Hindi
Service kind                             : Complete Main
Default                                  : Yes
Forced                                   : Yes

Audio #2
ID                                       : 3
Format                                   : AC-3
Format/Info                              : Audio Coding 3
Codec ID                                 : A_AC3
Duration                                 : 1 h 34 min
Bit rate mode                            : Constant
Bit rate                                 : 448 kb/s
Channel(s)                               : 6 channels
Channel positions                        : Front: L C R, Side: L R, LFE
Sampling rate                            : 48.0 kHz
Frame rate                               : 31.250 FPS (1536 SPF)
Bit depth                                : 16 bits
Compression mode                         : Lossy
Stream size                              : 304 MiB (7%)
Title                                    : ~Ranvijay~
Language                                 : English
Service kind                             : Complete Main
Default                                  : No
Forced                                   : No

Text
ID                                       : 4
Format                                   : PGS
Muxing mode                              : zlib
Codec ID                                 : S_HDMV/PGS
Codec ID/Info                            : Picture based subtitle format used on BDs/HD-DVDs
Duration                                 : 1 h 33 min
Bit rate                                 : 26.5 kb/s
Count of elements                        : 1692
Stream size                              : 17.7 MiB (0%)
Title                                    : ~Ranvijay~
Language                                 : English
Default                                  : Yes
Forced                                   : Yes

Menu
00:00:00.000                             : en:00:00:00.000
00:03:33.087                             : en:00:03:33.087
00:05:44.385                             : en:00:05:44.385
00:12:06.725                             : en:00:12:06.725
00:15:11.660                             : en:00:15:11.660
00:18:30.484                             : en:00:18:30.484
00:21:01.385                             : en:00:21:01.385
00:23:41.795                             : en:00:23:41.795
00:28:55.066                             : en:00:28:55.066
00:34:00.621                             : en:00:34:00.621
00:37:45.805                             : en:00:37:45.805
00:45:01.323                             : en:00:45:01.323
00:48:43.712                             : en:00:48:43.712
00:54:58.753                             : en:00:54:58.753
01:01:26.933                             : en:01:01:26.933
01:04:28.823                             : en:01:04:28.823
01:08:19.345                             : en:01:08:19.345
01:12:02.693                             : en:01:12:02.693
01:14:19.746                             : en:01:14:19.746
01:17:49.498                             : en:01:17:49.498
01:23:43.852                             : en:01:23:43.852
01:24:57.842                             : en:01:24:57.842
01:27:09.474                             : en:01:27:09.474

















:download:

Quote



File Leeched & Uploaded From




Don't walk as you are king, walk as you don't care who the king is....!!
Never argue with an idiot. They drag you down to their level and then beat you with experience?

Share this topic on FacebookShare this topic on GoogleShare this topic on MySpaceShare this topic on TwitterShare this topic on Yahoo

« Last Edit: December 31, 2018, 10:24:19 PM by Rάήνίјάч1234 »



Don't walk as you are king, walk as you don't care who the king is....!!

Tags:
 

Related Topics





Back to top
Marvel’s Runaways | Скачать | Last Day on Earth: Survival