+ ShareSpark.net »  :::: Dubbed Zone (Dubbed English in Hindi) » English Movies Dubbed in Hindi » High Resolution Movies
|- Ant-Man.And.The.Wasp.(2018).IMAX.1080p.BDRip.Dual.Audio.Org.BD.{Hindi+Eng.6Ch}.-~{DOOMGUY}~-


100% Bill Offer

Ant-Man.And.The.Wasp.(2018).IMAX.1080p.BDRip.Dual.Audio.Org.BD.{Hindi+Eng.6Ch}.-~{DOOMGUY}~-

0 Members and 1 Guest are viewing this topic.

January 01, 2019, 12:45:50 PM
Ant-Man.And.The.Wasp.(2018).IMAX.1080p.BDRip.Dual.Audio.Org.BD.{Hindi+Eng.6Ch}.-~{DOOMGUY}~-



Storyline :

Scott Lang is grappling with the consequences of his choices as both a superhero and a father. Approached by Hope van Dyne and Dr. Hank Pym, Lang must once again don the Ant-Man suit and fight alongside the Wasp. The urgent mission soon leads to secret revelations from the past as the dynamic duo finds itself in an epic battle against a powerful new enemy.

Thanks Sandeep for GD Links


General

Complete name : Ant-Man.And.The.Wasp.(2018).IMAX.1080p.BDRip.Dual.Audio.Org.BD.{Hindi+Eng.6Ch}.-~{DOOMGUY}~-.mkv
Format : Matroska
Format version : Version 4 / Version 2
File size : 3.22 GiB
Duration : 1 h 58 min
Overall bit rate : 3 895 Kbps
Movie name : Ant-Man.And.The.Wasp.(2018).IMAX.1080p.BDRip.Dual.Audio.Org.BD.{Hindi+Eng.6Ch}.-~{DOOMGUY}~-

Video
ID : 1
Format : AVC
Format/Info : Advanced Video Codec
Format profile : [email protected]
Format settings, CABAC : Yes
Format settings, ReFrames : 4 frames
Codec ID : V_MPEG4/ISO/AVC
Duration : 2h 27mn
Bit rate : 2 989 Kbps
Width : 1 920 pixels
Height : 1 080 pixels
Display aspect ratio : 16:9
Frame rate mode : Constant
Frame rate : 23.976 (24000/1001) fps
Color space : YUV
Chroma subsampling : 4:2:0
Bit depth : 8 bits
Scan type : Progressive
Bits/(Pixel*Frame) : 0.060
Stream size : 2.47 GiB (77%)
Title : Ant-Man.And.The.Wasp.(2018).IMAX.1080p.BDRip.Dual.Audio.Org.BD.{Hindi+Eng.6Ch}.-~{DOOMGUY}~-
Language : English
Default : Yes
Forced : No

Audio #1
ID : 2
Format : AC-3
Format/Info : Audio Coding 3
Format settings, Endianness : Big
Codec ID : A_AC3
Duration : 1 h 58 min
Bit rate mode : Constant
Bit rate : 640 Kbps
Channel(s) : 6 channels
Channel positions : Front: L C R, Side: L R, LFE
Sampling rate : 48.0 KHz
Frame rate : 31.250 fps (1536 spf)
Compression mode : Lossy
Stream size : 541 MiB (16%)
Title : RiPPER ~L3GION~ ORG DOLBY DIGITAL [email protected]~
Language : Hindi
Default : Yes
Forced : No

Audio #2
ID : 3
Format : AAC
Format/Info : Advanced Audio Codec Low Complexity
Format settings, Endianness : Big
Codec ID : A_AAC-2
Duration : 1 h 58 min
Bit rate mode : Constant
Bit rate : 224 Kbps
Channel(s) : 6 channels
Channel positions : Front: L C R, Side: L R, LFE
Sampling rate : 48.0 KHz
Frame rate : 31.250 fps (512 SPF)
Compression mode : Lossy
Stream size : 189 MiB (6%)
Title : RiPPER ~L3GION~ ORG DOLBY DIGITAL [email protected]~
Language : English
Default : No
Forced : No

Text #1
ID : 4
Format : PGS
Muxing mode : zlib
Codec ID : S_HDMV/PGS
Codec ID/Info : Picture based subtitle format used on BDs/HD-DVDs
Duration : 1 h 57 min
Bit rate : 13.1 kb/s
Count of elements : 4274
Stream size : 11.0 MiB (0%)
Title : L3GION ~Presentation Graphic Subtitle~
Language : English
Default : Yes
Forced : No

Text #2
ID : 5
Format : PGS
Muxing mode : zlib
Codec ID : S_HDMV/PGS
Codec ID/Info : Picture based subtitle format used on BDs/HD-DVDs
Duration : 1 h 57 min
Bit rate : 27.2 kb/s
Count of elements : 4804
Stream size : 23.0 MiB (1%)
Title : L3GION ~Presentation Graphic Commentary Subtitle~
Language : English
Default : No
Forced : No

Chapters : NA










NOTE :

1. SEEDING SPEED IS SLOW MIGHT BE!! :)
2. DO SEED BACK, FOR OTHERS TO ENJOY!!
3. THANKS HAMMER FOR BLURAY HINDI AUDIO
4. ENjOY THe PERFECTION, FOR THOSE WHO LIKE PERFECTION

Share this topic on FacebookShare this topic on GoogleShare this topic on MySpaceShare this topic on TwitterShare this topic on Yahoo

« Last Edit: January 01, 2019, 12:46:59 PM by •●๋ Ñαтsυ ÐяαGиєєℓ™☣ »



Tags: Action Adventure mcu 
 

Related Topics





Back to top
Onepunch-Man 25 | How It Ends | Cardfight!! Vanguard G: Z